<?xml version="1.0" standalone="no"?>
<!DOCTYPE svg PUBLIC "-//W3C//DTD SVG 1.1//EN" "http://www.w3.org/Graphics/SVG/1.1/DTD/svg11.dtd" >
<svg xmlns="http://www.w3.org/2000/svg" xmlns:xlink="http://www.w3.org/1999/xlink" version="1.1">
<metadata></metadata>
<defs>
<font id="noto_sanscondensed" horiz-adv-x="966" >
<font-face units-per-em="2048" ascent="1638" descent="-410" />
<missing-glyph horiz-adv-x="425" />
<glyph horiz-adv-x="0" />
<glyph horiz-adv-x="682" />
<glyph horiz-adv-x="0" />
<glyph horiz-adv-x="0" />
<glyph unicode="&#xd;" horiz-adv-x="425" />
<glyph unicode=" "  horiz-adv-x="425" />
<glyph unicode="&#x09;" horiz-adv-x="425" />
<glyph unicode="&#xa0;" horiz-adv-x="425" />
<glyph unicode="!" horiz-adv-x="501" d="M135 113q0 133 117 133q51 0 83 -31t32 -102q0 -70 -34 -101.5t-81 -31.5q-53 0 -85 32.5t-32 100.5zM147 1462h207l-43 -1050h-121z" />
<glyph unicode="&#x22;" horiz-adv-x="794" d="M123 1462h192l-34 -528h-121zM479 1462h193l-35 -528h-121z" />
<glyph unicode="#" horiz-adv-x="1056" d="M43 440v133h215l49 338h-209v133h228l59 418h135l-61 -418h229l62 418h129l-60 -418h197v-133h-215l-47 -338h209v-133h-230l-63 -440h-133l63 440h-229l-62 -440h-131l62 440h-197zM391 573h227l50 338h-230z" />
<glyph unicode="$" d="M96 172v164q61 -33 150.5 -57.5t181.5 -28.5v432q-176 63 -254 143t-78 219q0 143 91.5 232.5t240.5 103.5v176h109v-172q172 -8 307 -73l-49 -140q-113 53 -258 66v-432q170 -63 255 -138t85 -214q0 -135 -88.5 -226.5t-251.5 -113.5v-232h-109v223q-98 2 -185 20.5 t-147 47.5zM252 1053q0 -82 38 -125t138 -80v385q-88 -10 -132 -59.5t-44 -120.5zM537 258q94 16 139 65.5t45 118.5q0 74 -41 118t-143 81v-383z" />
<glyph unicode="%" horiz-adv-x="1462" d="M88 1026q0 219 63.5 338t192.5 119q125 0 192.5 -119t67.5 -338t-66.5 -340t-193.5 -121q-125 0 -190.5 121t-65.5 340zM229 1026q0 -168 26 -251t89 -83q117 0 117 334q0 332 -119 332q-61 0 -87 -83t-26 -249zM358 0l603 1462h141l-602 -1462h-142zM860 442 q0 223 64.5 340t191.5 117q125 0 192.5 -120t67.5 -337q0 -221 -66.5 -340.5t-193.5 -119.5q-125 0 -190.5 121.5t-65.5 338.5zM1001 442q0 -168 27 -252t88 -84q117 0 117 336q0 332 -119 332q-59 0 -86 -83t-27 -249z" />
<glyph unicode="&#x26;" horiz-adv-x="1134" d="M74 373q0 139 63.5 237.5t190.5 188.5q-66 94 -102 180t-36 199q0 143 79 224t212 81t207 -81t74 -228q0 -125 -55.5 -219.5t-157.5 -178.5l262 -358q33 57 53.5 130t30.5 159h174q-16 -111 -54 -225.5t-97 -202.5l217 -279h-213l-115 156q-78 -82 -166 -129t-213 -47 q-174 0 -264 108.5t-90 284.5zM250 381q0 -115 53 -180.5t143 -65.5q82 0 147.5 39t117.5 109l-295 403q-86 -66 -126 -134.5t-40 -170.5zM356 1176q0 -70 27 -147t76 -140q78 59 109.5 130t31.5 157q0 167 -123 167q-55 0 -88 -43t-33 -124z" />
<glyph unicode="'" horiz-adv-x="436" d="M123 1462h192l-34 -528h-121z" />
<glyph unicode="(" horiz-adv-x="602" d="M94 565q0 256 76 490.5t219 414.5h152q-135 -199 -205 -429t-70 -474q0 -240 70 -470t203 -421h-150q-147 176 -221 405.5t-74 483.5z" />
<glyph unicode=")" horiz-adv-x="602" d="M59 1470h154q145 -180 219 -416.5t74 -488.5t-74 -482t-219 -407h-152q133 193 203 423.5t70 467.5q0 246 -69.5 476.5t-205.5 426.5z" />
<glyph unicode="*" horiz-adv-x="907" d="M78 1169l31 168l286 -84l-33 306h181l-33 -306l289 86l30 -170l-282 -22l194 -256l-151 -86l-137 280l-136 -280l-149 86l188 256z" />
<glyph unicode="+" horiz-adv-x="968" d="M74 651v142h338v415h143v-415h336v-142h-336v-411h-143v411h-338z" />
<glyph unicode="," horiz-adv-x="489" d="M78 -268q31 121 56.5 257t37.5 247h180l15 -23q-59 -252 -162 -481h-127z" />
<glyph unicode="-" horiz-adv-x="589" d="M63 469v164h465v-164h-465z" />
<glyph unicode="." horiz-adv-x="489" d="M129 113q0 68 30.5 100.5t84.5 32.5q51 0 83.5 -31t32.5 -102q0 -70 -32.5 -101.5t-83.5 -31.5t-83 32.5t-32 100.5z" />
<glyph unicode="/" horiz-adv-x="759" d="M33 -4l540 1470h162l-538 -1470h-164z" />
<glyph unicode="0" d="M88 731q0 373 95.5 562.5t297.5 189.5q199 0 297.5 -190.5t98.5 -561.5q0 -354 -92.5 -552.5t-303.5 -198.5q-127 0 -215 72.5t-133 237.5t-45 441zM264 731q0 -301 50.5 -448.5t166.5 -147.5q117 0 168 148.5t51 447.5t-51 448.5t-168 149.5t-167 -148.5t-50 -449.5z " />
<glyph unicode="1" d="M143 1145l349 317h147v-1462h-172v995q0 74 2 138.5t6 130.5q-18 -23 -41.5 -47.5t-58.5 -57.5l-135 -123z" />
<glyph unicode="2" d="M78 0v133l315 414q94 121 151.5 210t83 170t25.5 175q0 104 -55 165.5t-156 61.5q-78 0 -138 -27.5t-124 -84.5l-92 118q82 74 168 111t195 37q176 0 277 -102.5t101 -270.5q0 -117 -32.5 -214t-96 -193.5t-155.5 -210.5l-260 -328v-8h581v-156h-788z" />
<glyph unicode="3" d="M80 1343q80 70 172 105t205 35q180 0 277 -98.5t97 -260.5q0 -133 -67.5 -225t-192.5 -131v-8q143 -27 217 -119t74 -235q0 -190 -114.5 -308t-333.5 -118q-98 0 -178 15t-154 50v170q154 -86 319 -86q145 0 213 78t68 207q0 266 -332 266h-94v149h100q143 0 222 77 t79 202q0 109 -56 167t-159 58q-86 0 -149.5 -29.5t-128.5 -80.5z" />
<glyph unicode="4" d="M37 322v143l545 1008h182v-1002h170v-149h-170v-322h-170v322h-557zM197 471h397v528q0 66 2 137.5t6 123.5h-8q-16 -45 -35.5 -89.5t-38.5 -83.5z" />
<glyph unicode="5" d="M109 47v170q63 -41 141 -63.5t151 -22.5q141 0 216 92t75 238q0 143 -71.5 217t-208.5 74q-51 0 -106.5 -9.5t-102.5 -23.5l-76 63l47 680h608v-157h-460l-31 -426q41 8 87 14t93 6q184 0 290.5 -117.5t106.5 -312.5q0 -221 -118.5 -355t-339.5 -134q-188 0 -301 67z" />
<glyph unicode="6" d="M96 623q0 254 49.5 447.5t167 303t318.5 109.5q43 0 85 -6.5t77 -14.5v-153q-68 25 -156 24q-188 0 -275.5 -153.5t-95.5 -423.5h8q39 76 104.5 121t160.5 45q111 0 186.5 -58.5t114.5 -162t39 -236.5q0 -141 -44 -251t-128 -172t-207 -62q-184 0 -294 164t-110 479z M274 518q0 -86 22.5 -175t72 -149.5t129.5 -60.5q96 0 152.5 81t56.5 249q0 152 -52.5 231.5t-154.5 79.5q-72 0 -122 -37t-77 -96t-27 -123z" />
<glyph unicode="7" d="M72 1303v159h813v-131l-484 -1331h-184l490 1303h-635z" />
<glyph unicode="8" d="M78 365q0 135 68.5 231t191.5 166q-106 76 -163.5 167t-57.5 208q0 162 102 254t266 92q168 0 267.5 -92.5t99.5 -251.5q0 -125 -64.5 -216.5t-179.5 -156.5q121 -74 201 -164t80 -229q0 -176 -108.5 -284.5t-288.5 -108.5q-199 0 -306.5 104t-107.5 281zM250 365 q0 -104 59.5 -173t173.5 -69q115 0 174.5 69.5t59.5 180.5q0 86 -54.5 156.5t-160.5 132.5l-39 24q-113 -63 -163 -139t-50 -182zM287 1128q0 -100 52 -163.5t144 -118.5q96 55 146.5 120.5t50.5 161.5q0 98 -53.5 154.5t-145.5 56.5q-88 0 -141 -56t-53 -155z" />
<glyph unicode="9" d="M84 995q0 141 44 251t130 173.5t213 63.5q180 0 287.5 -162t107.5 -471q0 -256 -51 -451.5t-169 -307t-318 -111.5q-39 0 -87 6t-79 14v156q35 -12 76 -19.5t86 -7.5q104 0 173.5 47t111.5 128t62.5 184.5t24.5 216.5h-10q-37 -74 -103.5 -119t-160.5 -45 q-111 0 -186.5 58t-113.5 161.5t-38 234.5zM258 999q0 -152 51 -231.5t154 -79.5q74 0 125 39t76.5 100.5t25.5 128.5q0 55 -11 120t-37 122t-68 94t-105 37q-100 0 -155.5 -81t-55.5 -249z" />
<glyph unicode=":" horiz-adv-x="491" d="M131 113q0 133 115 133q51 0 82.5 -31t31.5 -102q0 -70 -32.5 -101.5t-81.5 -31.5q-53 0 -84 32.5t-31 100.5zM131 979q0 133 115 133q53 0 83.5 -32.5t30.5 -100.5q0 -70 -32.5 -102.5t-81.5 -32.5q-53 0 -84 32.5t-31 102.5z" />
<glyph unicode=";" horiz-adv-x="491" d="M70 -268q33 123 58.5 258t39.5 246h180l14 -23q-59 -252 -161 -481h-131zM129 979q0 68 30.5 100.5t84.5 32.5q53 0 84.5 -32.5t31.5 -100.5q0 -70 -33.5 -102.5t-82.5 -32.5q-53 0 -84 32.5t-31 102.5z" />
<glyph unicode="&#x3c;" horiz-adv-x="968" d="M72 674v100l821 428v-160l-631 -317l631 -305v-160z" />
<glyph unicode="=" horiz-adv-x="968" d="M78 436v142h809v-142h-809zM78 864v142h809v-142h-809z" />
<glyph unicode="&#x3e;" horiz-adv-x="968" d="M74 260v160l631 305l-631 317v160l821 -428v-100z" />
<glyph unicode="?" horiz-adv-x="722" d="M25 1386q70 47 146.5 72t164.5 25q164 0 252 -90t88 -252q0 -88 -21.5 -153.5t-63.5 -124t-104 -130.5q-49 -55 -76.5 -98t-38 -85t-10.5 -99v-39h-135v57q0 109 27 183.5t100 156.5q86 96 120 163.5t34 155.5q0 98 -47 149.5t-133 51.5q-70 0 -126.5 -21.5t-113.5 -56.5 zM184 113q0 68 31 100.5t84 32.5q51 0 83 -31t32 -102q0 -70 -33 -101.5t-82 -31.5q-53 0 -84 32.5t-31 100.5z" />
<glyph unicode="@" horiz-adv-x="1484" d="M104 584q0 266 84 466.5t239 311.5t361 108q182 0 316.5 -96t207 -262t72.5 -375q0 -227 -73.5 -367.5t-210.5 -140.5q-84 0 -130 50.5t-57 134.5h-10q-27 -90 -78 -137.5t-129 -47.5q-119 0 -185.5 98.5t-66.5 274.5q0 221 90.5 346t253.5 125q61 0 124 -11t110 -30 l-18 -424q0 -33 -1.5 -58.5t-1.5 -41.5q0 -86 28 -120t73 -34q70 0 107.5 99.5t37.5 287.5q0 184 -58.5 320.5t-160.5 211.5t-240 75q-141 0 -244.5 -64.5t-170 -172t-98 -242t-31.5 -273.5q0 -186 52 -332.5t158.5 -230.5t270.5 -84q90 0 178 23.5t154 56.5v-131 q-72 -35 -153 -54.5t-183 -19.5q-295 0 -456 198.5t-161 561.5zM590 598q0 -244 129 -244q66 0 98.5 81t40.5 245l14 262q-37 12 -92 12q-96 0 -143 -96t-47 -260z" />
<glyph unicode="A" horiz-adv-x="1038" d="M0 0l420 1464h194l422 -1464h-184l-127 455h-414l-127 -455h-184zM348 616h338l-125 469q-10 45 -24.5 106.5t-20.5 106.5q-20 -111 -45 -213z" />
<glyph unicode="B" horiz-adv-x="1083" d="M164 0v1462h352q217 0 329.5 -86t112.5 -270q0 -137 -58 -222t-171 -110v-8q127 -29 195.5 -111t68.5 -237q0 -193 -108.5 -305.5t-302.5 -112.5h-418zM340 152h217q131 0 192.5 71.5t61.5 204.5q0 125 -67.5 192.5t-204.5 67.5h-199v-536zM340 838h186q137 0 194.5 62.5 t57.5 189.5q0 221 -262 221h-176v-473z" />
<glyph unicode="C" horiz-adv-x="1028" d="M109 733q0 213 61 383t185 269.5t309 99.5q172 0 311 -78l-66 -150q-53 31 -113 50.5t-130 19.5q-125 0 -208 -80t-124 -215t-41 -301q0 -276 99.5 -435t279.5 -159q72 0 136 15.5t124 40.5v-156q-59 -29 -127 -43t-154 -14q-172 0 -292.5 91t-185 260t-64.5 402z" />
<glyph unicode="D" horiz-adv-x="1187" d="M164 0v1462h350q270 0 418.5 -182t148.5 -532q0 -371 -151.5 -559.5t-435.5 -188.5h-330zM340 156h141q211 0 313.5 147t102.5 438q0 287 -101.5 426.5t-293.5 139.5h-162v-1151z" />
<glyph unicode="E" horiz-adv-x="917" d="M164 0v1462h653v-155h-477v-465h448v-156h-448v-528h477v-158h-653z" />
<glyph unicode="F" horiz-adv-x="864" d="M164 0v1462h653v-155h-477v-527h448v-157h-448v-623h-176z" />
<glyph unicode="G" horiz-adv-x="1228" d="M109 733q0 221 69.5 390t205.5 264.5t339 95.5q100 0 192.5 -23.5t171.5 -68.5l-63 -150q-70 41 -146.5 63.5t-154.5 22.5q-207 0 -318.5 -155.5t-111.5 -440.5q0 -170 42 -305t133 -212t239 -77q133 0 227 31v446h-242v158h414v-719q-194 -73 -416 -73h-6 q-193 0 -320.5 96t-191 266t-63.5 391z" />
<glyph unicode="H" horiz-adv-x="1218" d="M164 0v1462h176v-620h541v620h176v-1462h-176v684h-541v-684h-176z" />
<glyph unicode="I" horiz-adv-x="614" d="M74 0v100l143 37v1188l-143 37v100h465v-100l-146 -37v-1188l146 -37v-100h-465z" />
<glyph unicode="J" horiz-adv-x="489" d="M-119 -215q29 -10 59.5 -15.5t65.5 -5.5q72 0 112 54.5t40 191.5v1452h174v-1456q0 -215 -82.5 -307t-229.5 -92q-82 0 -139 24v154z" />
<glyph unicode="K" horiz-adv-x="1021" d="M164 0v1462h176v-729q29 41 66.5 98.5t87.5 133.5l319 497h195l-428 -643l446 -819h-199l-368 682l-119 -125v-557h-176z" />
<glyph unicode="L" horiz-adv-x="854" d="M164 0v1462h176v-1304h475v-158h-651z" />
<glyph unicode="M" horiz-adv-x="1587" d="M164 0v1462h252l375 -1196h6l374 1196h254v-1462h-172v924q0 63 3.5 146t7.5 173h-9l-389 -1243h-153l-387 1243h-9q6 -90 9.5 -173t3.5 -148v-922h-166z" />
<glyph unicode="N" horiz-adv-x="1282" d="M164 0v1462h211l583 -1183h7q-4 78 -7.5 164.5t-3.5 158.5v860h166v-1462h-211l-585 1198h-9q6 -80 10.5 -164t4.5 -162v-872h-166z" />
<glyph unicode="O" horiz-adv-x="1267" d="M109 735q0 365 132 556.5t396 191.5q182 0 298 -98.5t171 -267.5t55 -384t-55 -386t-172 -269t-299 -98q-186 0 -302 100t-170 271t-54 384zM293 733q0 -289 85 -442.5t257 -153.5q170 0 255 152.5t85 443.5t-84 441.5t-254 150.5q-174 0 -259 -151.5t-85 -440.5z" />
<glyph unicode="P" horiz-adv-x="1007" d="M164 0v1462h305q238 0 350.5 -108.5t112.5 -323.5q0 -211 -113.5 -336t-361.5 -125h-117v-569h-176zM340 723h98q164 0 238 70.5t74 232.5q0 150 -69.5 216.5t-219.5 66.5h-121v-586z" />
<glyph unicode="Q" horiz-adv-x="1267" d="M109 735q0 365 132 556.5t396 191.5q254 0 389 -194t135 -556q0 -276 -82 -458.5t-235 -251.5l262 -371h-221l-213 332q-20 -4 -43 -4q-184 0 -299 101t-168 272t-53 382zM293 733q0 -289 85 -442.5t257 -153.5q170 0 255 152.5t85 443.5t-84 441.5t-254 150.5 q-174 0 -259 -151.5t-85 -440.5z" />
<glyph unicode="R" horiz-adv-x="1042" d="M164 0v1462h303q240 0 352.5 -103.5t112.5 -309.5q0 -154 -63.5 -249t-180.5 -145l328 -655h-199l-289 610h-188v-610h-176zM340 758h139q272 0 273 282q0 141 -70 203t-217 62h-125v-547z" />
<glyph unicode="S" horiz-adv-x="929" d="M86 45v178q70 -39 160 -60.5t172 -21.5q121 0 186.5 69t65.5 171q0 72 -24.5 121t-82 90t-155.5 86q-98 47 -168 101.5t-106 131t-36 191.5t50.5 201t141.5 133t210 47q94 0 178 -21.5t149 -52.5l-57 -160q-66 33 -134.5 52.5t-133.5 19.5q-109 0 -167.5 -60.5 t-58.5 -154.5q0 -74 24 -122t79 -88t151 -85q158 -74 237 -168t79 -246q0 -125 -52.5 -219t-148.5 -146t-225 -52q-199 0 -334 65z" />
<glyph unicode="T" horiz-adv-x="888" d="M20 1305v157h844v-157h-334v-1305h-174v1305h-336z" />
<glyph unicode="U" horiz-adv-x="1198" d="M152 475v987h176v-989q0 -172 69.5 -254t204.5 -82q137 0 201.5 84t64.5 254v987h176v-987q0 -242 -110.5 -368.5t-335.5 -126.5q-217 0 -331.5 125.5t-114.5 369.5z" />
<glyph unicode="V" horiz-adv-x="1001" d="M0 1462h184l254 -975q18 -72 33.5 -146.5t26.5 -143.5q10 70 26.5 144.5t36.5 150.5l256 970h184l-405 -1462h-195z" />
<glyph unicode="W" horiz-adv-x="1601" d="M12 1462h181l192 -895q20 -106 35.5 -199.5t23.5 -162.5q12 86 30 181t36 181l205 895h170l207 -897q18 -82 34.5 -174t28.5 -186q10 92 26.5 185t35.5 177l194 895h178l-325 -1462h-199l-217 940q-12 51 -25.5 128t-23.5 159q-6 -53 -18.5 -132t-30.5 -155l-211 -940 h-197z" />
<glyph unicode="X" horiz-adv-x="933" d="M12 0l363 764l-328 698h186l242 -555l242 555h184l-328 -706l349 -756h-191l-260 608l-274 -608h-185z" />
<glyph unicode="Y" horiz-adv-x="909" d="M0 1462h186l271 -696l268 696h184l-366 -893v-569h-176v563z" />
<glyph unicode="Z" horiz-adv-x="868" d="M61 0v135l543 1170h-530v157h727v-137l-545 -1167h561v-158h-756z" />
<glyph unicode="[" horiz-adv-x="649" d="M152 -328v1798h438v-141h-275v-1515h275v-142h-438z" />
<glyph unicode="\" horiz-adv-x="759" d="M33 1466h162l540 -1470h-164z" />
<glyph unicode="]" horiz-adv-x="649" d="M59 -186h275v1515h-275v141h439v-1798h-439v142z" />
<glyph unicode="^" horiz-adv-x="985" d="M45 639l391 825h101l405 -825h-162l-293 618l-282 -618h-160z" />
<glyph unicode="_" horiz-adv-x="899" d="M-4 -174h907v-129h-907v129z" />
<glyph unicode="`" horiz-adv-x="552" d="M82 1550v19h203q23 -47 55.5 -103.5t67 -109.5t63.5 -92v-23h-111q-41 37 -97 93.5t-106.5 114.5t-74.5 101z" />
<glyph unicode="a" horiz-adv-x="942" d="M78 307q0 164 104.5 253t306.5 97l144 7v69q0 131 -42 188.5t-130 57.5q-59 0 -117.5 -19.5t-120.5 -52.5l-53 127q66 39 145.5 61.5t167.5 22.5q168 0 243 -95t75 -280v-743h-129l-27 154h-6q-51 -88 -117.5 -131t-169.5 -43q-133 0 -203.5 93t-70.5 234zM252 309 q0 -98 42 -144t112 -46q102 0 164.5 82t62.5 235v107l-117 -6q-141 -6 -202.5 -63.5t-61.5 -164.5z" />
<glyph unicode="b" horiz-adv-x="1040" d="M145 0v1556h170v-423q0 -45 -2 -91.5t-6 -87.5h10q45 78 112 121t157 43q172 0 267 -143.5t95 -423.5q0 -279 -94 -425t-262 -146q-94 0 -160.5 40.5t-114.5 118.5h-12l-26 -139h-134zM315 532q0 -205 56.5 -306t183.5 -101q217 0 217 428q0 207 -53 312.5t-168 105.5 q-92 0 -143.5 -51.5t-72 -143.5t-20.5 -215v-29z" />
<glyph unicode="c" horiz-adv-x="792" d="M96 543q0 281 106.5 429t305.5 148q70 0 129 -15t104 -40l-51 -139q-41 18 -87 30.5t-87 12.5q-246 0 -246 -424q0 -418 244 -418q57 0 110.5 15.5t102.5 39.5v-145q-47 -29 -106.5 -43t-118.5 -14q-195 0 -300.5 139t-105.5 424z" />
<glyph unicode="d" horiz-adv-x="1040" d="M94 549q0 276 94.5 423.5t262.5 147.5q90 0 159.5 -43t114.5 -119h8q-4 41 -6 81t-2 73v444h172v-1556h-137l-25 141h-10q-45 -76 -110.5 -118.5t-159.5 -42.5q-172 0 -266.5 145t-94.5 424zM268 547q0 -207 54 -315.5t167 -108.5q123 0 180.5 95t57.5 286v53 q0 209 -55.5 311.5t-184.5 102.5q-113 0 -166 -110.5t-53 -313.5z" />
<glyph unicode="e" horiz-adv-x="946" d="M96 543q0 276 101.5 425.5t289.5 149.5q121 0 203 -63.5t124 -174t42 -249.5v-115h-590q6 -391 275 -391q141 0 272 76v-152q-66 -35 -134.5 -52t-152.5 -17q-145 0 -240.5 71.5t-142.5 198.5t-47 293zM268 651h424q-2 137 -51.5 232.5t-153.5 95.5q-201 0 -219 -328z " />
<glyph unicode="f" horiz-adv-x="573" d="M23 961v86l149 59v63q0 197 65.5 297.5t217.5 100.5q51 0 94 -9.5t84 -25.5l-43 -135q-31 8 -60.5 16t-60.5 8q-70 0 -97.5 -55t-27.5 -192v-74h205v-139h-205v-961h-172v961h-149z" />
<glyph unicode="g" horiz-adv-x="1040" d="M94 545q0 279 96.5 427t264.5 148q86 0 153.5 -40t116.5 -126h10l21 146h141v-1114q0 -231 -105.5 -354.5t-332.5 -123.5q-176 0 -301 66v160q145 -78 301 -78q131 0 199.5 71.5t68.5 227.5v35q0 31 1 76t5 86h-8q-94 -172 -274 -172q-168 0 -262.5 145t-94.5 420z M268 543q0 -213 55.5 -315.5t168.5 -102.5q236 0 235 377v49q0 219 -58.5 319.5t-183.5 100.5q-109 0 -163 -109.5t-54 -318.5z" />
<glyph unicode="h" horiz-adv-x="1034" d="M145 0v1556h170v-444q0 -92 -12 -162h12q39 82 111 125t158 43q158 0 233.5 -95t75.5 -286v-737h-170v709q0 137 -40 198.5t-130 61.5q-129 0 -183.5 -98.5t-54.5 -301.5v-569h-170z" />
<glyph unicode="i" horiz-adv-x="460" d="M133 1395q0 59 27.5 87.5t72.5 28.5q96 0 97 -116q0 -57 -25.5 -87t-71.5 -30q-45 0 -72.5 29.5t-27.5 87.5zM145 0v1100h170v-1100h-170z" />
<glyph unicode="j" horiz-adv-x="460" d="M-53 -324q45 -18 92 -18q51 0 78.5 40t27.5 132v1270h170v-1266q1 -324 -249 -326q-37 0 -66 6.5t-53 14.5v147zM133 1395q0 59 27.5 87.5t72.5 28.5q96 0 97 -116q0 -57 -25.5 -87t-71.5 -30q-45 0 -72.5 30t-27.5 87z" />
<glyph unicode="k" horiz-adv-x="901" d="M145 0v1556h170v-784q0 -49 -3 -103.5t-7 -103.5h8q16 31 42 70t46 67l277 398h188l-319 -438l342 -662h-191l-266 532l-117 -126v-406h-170z" />
<glyph unicode="l" horiz-adv-x="458" d="M145 0v1556h170v-1556h-170z" />
<glyph unicode="m" horiz-adv-x="1552" d="M145 0v1100h138l20 -150h10q39 84 106.5 127t155.5 43q102 0 167 -48t89 -130h13q83 178 276 178q150 0 221.5 -95t71.5 -294v-731h-170v707q0 137 -42 200.5t-124 63.5q-117 0 -166 -93.5t-49 -271.5v-606h-168v711q0 137 -40 198.5t-124 61.5q-127 0 -171 -108.5 t-44 -289.5v-573h-170z" />
<glyph unicode="n" horiz-adv-x="1034" d="M145 0v1100h138l20 -150h10q41 82 114 126t159 44q152 0 229.5 -93t77.5 -290v-737h-170v709q0 131 -40 196.5t-130 65.5q-131 0 -184.5 -96.5t-53.5 -303.5v-571h-170z" />
<glyph unicode="o" horiz-adv-x="1009" d="M94 551q0 272 103.5 420.5t308.5 148.5q190 0 299.5 -145t109.5 -424q0 -260 -104 -415.5t-309 -155.5q-195 0 -301.5 154.5t-106.5 416.5zM268 551q0 -207 57.5 -315.5t180.5 -108.5q121 0 179 108.5t58 315.5t-58 314.5t-179 107.5q-125 0 -181.5 -107.5t-56.5 -314.5z " />
<glyph unicode="p" horiz-adv-x="1040" d="M145 -492v1592h140l20 -150h10q45 82 112 126t159 44q172 0 267 -142t95 -427q0 -274 -94 -422.5t-262 -148.5q-94 0 -165 45t-112 120h-8q4 -41 6 -83t2 -74v-480h-170zM315 545q0 -213 55.5 -315.5t182.5 -102.5q111 0 165 108.5t54 315.5q0 205 -52 314.5t-169 109.5 q-123 0 -178.5 -96.5t-57.5 -294.5v-39z" />
<glyph unicode="q" horiz-adv-x="1040" d="M94 545q0 287 97.5 431t263.5 144q94 0 159.5 -42t110.5 -126h10l21 148h141v-1592h-172v459q0 35 3 83t7 102h-10q-45 -82 -112.5 -127t-163.5 -45q-164 0 -259.5 143t-95.5 422zM268 543q1 -416 224 -416q119 0 176 94t59 283v47q0 215 -56.5 317.5t-183.5 102.5 q-113 0 -166 -110.5t-53 -317.5z" />
<glyph unicode="r" horiz-adv-x="690" d="M145 0v1100h136l20 -193h10q41 94 103.5 153.5t148.5 59.5q25 0 51.5 -3t53.5 -11l-25 -170q-20 8 -44 11t-48 3q-68 0 -121 -48t-84 -132t-31 -192v-578h-170z" />
<glyph unicode="s" horiz-adv-x="780" d="M78 829q0 133 94 212t246 79q78 0 147.5 -19.5t132.5 -53.5l-61 -136q-51 29 -106.5 47.5t-114.5 18.5q-82 0 -128 -38t-46 -103q0 -66 46 -107t161 -100q119 -63 188.5 -134t69.5 -198q0 -154 -93.5 -235.5t-257.5 -81.5q-88 0 -156.5 18t-119.5 45v170 q51 -35 125 -60.5t149 -25.5q92 0 139.5 43t47.5 119q0 63 -43 108t-156 101q-121 61 -192.5 131.5t-71.5 199.5z" />
<glyph unicode="t" horiz-adv-x="593" d="M35 961v88l125 53l53 246h111v-248h223v-139h-223v-658q0 -90 28.5 -133t91.5 -43q59 0 115 20v-135q-64 -32 -156 -32h-6q-115 0 -180 71.5t-65 235.5v674h-117z" />
<glyph unicode="u" horiz-adv-x="1034" d="M139 381v719h170v-692q0 -143 41 -211t127 -68q135 0 187.5 97.5t52.5 291.5v582h172v-1100h-139l-21 147h-10q-41 -82 -112.5 -124.5t-157.5 -42.5q-164 0 -237 105t-73 296z" />
<glyph unicode="v" horiz-adv-x="841" d="M6 1100h176l174 -651q16 -63 33 -134t27 -135h8q4 41 20.5 105.5t34.5 132.5l180 682h179l-322 -1100h-192z" />
<glyph unicode="w" horiz-adv-x="1349" d="M20 1100h173l122 -559q16 -86 34 -176.5t28 -167.5h6q10 66 24.5 152.5t36.5 174.5l138 576h188l135 -578q16 -59 32.5 -145t29.5 -180h6q4 43 17.5 112.5t29.5 149.5l141 641h170l-262 -1100h-197l-145 651q-14 68 -27.5 136.5t-21.5 121.5h-6q-8 -57 -20.5 -124.5 t-28.5 -133.5l-154 -651h-195z" />
<glyph unicode="x" horiz-adv-x="860" d="M31 0l301 565l-283 535h184l199 -404l201 404h184l-287 -541l299 -559h-184l-215 428l-217 -428h-182z" />
<glyph unicode="y" horiz-adv-x="843" d="M6 1100h178l176 -625q18 -66 35 -132.5t27 -131.5h8q8 55 24.5 123.5t37.5 142.5l170 623h176l-369 -1262q-49 -164 -124 -247t-202 -83q-33 0 -61.5 4.5t-54.5 12.5v145q20 -4 44.5 -8t47.5 -4q70 0 109.5 48t72.5 157l41 141z" />
<glyph unicode="z" horiz-adv-x="722" d="M59 0v115l408 843h-383v142h571v-125l-405 -834h420v-141h-611z" />
<glyph unicode="{" horiz-adv-x="751" d="M76 504v133q111 0 165 43t54 154v307q0 322 377 325v-139q-102 -4 -155.5 -47t-53.5 -147v-304q0 -113 -47 -174t-154 -80v-10q109 -20 155 -83.5t46 -170.5v-305q0 -100 51 -146t158 -48v-140q-186 4 -281.5 83t-95.5 245v305q0 100 -49 149.5t-170 49.5z" />
<glyph unicode="|" horiz-adv-x="919" d="M383 -487v2048h154v-2048h-154z" />
<glyph unicode="}" horiz-adv-x="751" d="M78 -188q106 2 158.5 48t52.5 146v305q0 109 47 171.5t153 82.5v8q-106 20 -153 82t-47 172v306q0 104 -54.5 148t-156.5 46v139q186 -4 281.5 -82.5t95.5 -242.5v-305q0 -102 49 -150.5t172 -48.5v-133q-117 -2 -169 -47t-52 -152v-307q0 -324 -377 -326v140z" />
<glyph unicode="~" horiz-adv-x="968" d="M72 590v158q88 106 213 106q57 0 107 -16.5t116 -46.5q111 -55 184 -56q53 0 106.5 34t98.5 85v-158q-90 -102 -213 -102q-61 0 -109 14t-116 47q-106 55 -183 56q-49 0 -103 -33t-101 -88z" />
<glyph unicode="&#xa1;" horiz-adv-x="501" d="M137 977q0 133 117 133q47 0 81 -31.5t34 -101.5q0 -72 -33 -102.5t-82 -30.5q-117 0 -117 133zM145 -381l43 1057h123l41 -1057h-207z" />
<glyph unicode="&#xa2;" d="M162 743q0 256 84 399.5t241 170.5v170h119v-164q121 -10 203 -53l-51 -144q-90 45 -174 45q-127 0 -187.5 -104.5t-60.5 -317.5q0 -215 60.5 -316t183.5 -101q57 0 109 15t106 42v-147q-76 -45 -191 -58v-200h-117v204q-326 47 -325 559z" />
<glyph unicode="&#xa3;" d="M78 664v135h164v297q0 190 88 288.5t250 98.5q84 0 155.5 -22.5t132.5 -63.5l-63 -137q-55 35 -108.5 52t-110.5 17q-88 0 -129 -56t-41 -181v-293h301v-135h-301v-228q0 -106 -35 -172.5t-94 -105.5h602v-158h-807v145q76 31 118 100.5t42 188.5v230h-164z" />
<glyph unicode="&#xa4;" horiz-adv-x="1140" d="M115 358l133 134q-76 104 -76 231q0 125 76 229l-133 138l90 86l131 -134q102 78 233 78q133 0 230 -76l135 132l90 -86l-131 -136q74 -102 74 -231q0 -127 -74 -234l131 -133l-88 -88l-137 133q-100 -76 -230 -75q-133 0 -233 75l-131 -131zM295 723q0 -76 37 -138.5 t98.5 -99t138.5 -36.5q80 0 142.5 37.5t98.5 99t36 137.5q2 76 -36 138.5t-101.5 100t-139.5 37.5q-74 0 -136 -36.5t-100 -100t-38 -139.5z" />
<glyph unicode="&#xa5;" d="M59 1462h181l241 -696l240 696h180l-295 -774h215v-125h-254v-174h254v-123h-254v-266h-174v266h-252v123h252v174h-252v125h211z" />
<glyph unicode="&#xa6;" horiz-adv-x="919" d="M383 307h154v-794h-154v794zM383 760v794h154v-794h-154z" />
<glyph unicode="&#xa7;" horiz-adv-x="845" d="M94 102v150q53 -37 130 -61.5t149 -24.5q102 0 153.5 44t51.5 107q0 45 -19.5 76t-68 60.5t-134.5 74.5q-133 66 -196.5 130.5t-63.5 168.5q0 86 43 146.5t111 93.5q-137 90 -137 227q0 127 92 197t239 70q84 0 146.5 -16.5t128.5 -49.5l-53 -125q-59 31 -110.5 46.5 t-113.5 15.5q-88 0 -131 -36t-43 -93q0 -66 47 -105t152 -88q131 -59 200.5 -128t69.5 -181q0 -84 -36.5 -148.5t-94.5 -99.5q127 -94 127 -225q0 -135 -97 -213t-263 -78q-170 0 -279 65zM244 848q0 -66 48 -111t142 -90l66 -31q41 25 66.5 65t25.5 97q0 47 -18.5 82 t-68.5 69t-145 77q-53 -16 -84.5 -59.5t-31.5 -98.5z" />
<glyph unicode="&#xa8;" horiz-adv-x="1107" d="M289 1376q0 53 25.5 78t64.5 25q37 0 62.5 -24.5t25.5 -78.5q0 -53 -25.5 -79.5t-62.5 -26.5q-39 0 -64.5 26.5t-25.5 79.5zM637 1376q0 53 26.5 78t63.5 25t63.5 -24.5t26.5 -78.5q0 -53 -26.5 -79.5t-63.5 -26.5q-39 0 -64.5 26.5t-25.5 79.5z" />
<glyph unicode="&#xa9;" horiz-adv-x="1701" d="M98 731q0 166 57.5 304.5t160 238.5t239.5 154.5t295 54.5q164 0 301 -57.5t238.5 -159t157 -238.5t55.5 -297q0 -164 -56.5 -301t-157 -238.5t-238.5 -156.5t-300 -55q-170 0 -308.5 58t-237.5 161.5t-152.5 239.5t-53.5 292zM213 731q0 -186 84 -331.5t227.5 -228.5 t325.5 -83q186 0 328.5 85t224.5 230.5t82 327.5t-82 328.5t-226.5 230.5t-326.5 84q-186 0 -330.5 -85t-225.5 -230.5t-81 -327.5zM475 729q0 205 109.5 331t304.5 126q66 0 131 -14.5t125 -43.5l-55 -118q-53 27 -102.5 38t-94.5 11q-125 0 -195.5 -86t-70.5 -240 q0 -332 262 -332q106 0 217 50v-127q-104 -50 -225 -50q-197 0 -301.5 120t-104.5 335z" />
<glyph unicode="&#xaa;" horiz-adv-x="651" d="M57 985q0 102 69 152.5t204 58.5l94 6v51q0 66 -28.5 93.5t-82.5 27.5q-43 0 -85 -13t-83 -34l-41 94q51 29 107 43.5t117 14.5q223 0 223 -232v-452h-90l-25 96q-37 -51 -86 -80t-114 -29q-82 0 -130.5 55.5t-48.5 147.5zM184 985q0 -98 92 -98q72 0 110 48t38 130v49 l-74 -6q-90 -4 -128 -34t-38 -89z" />
<glyph unicode="&#xab;" horiz-adv-x="972" d="M74 526v29l311 401l119 -63l-238 -352l238 -348l-119 -68zM467 526v29l313 401l117 -63l-235 -352l235 -348l-117 -68z" />
<glyph unicode="&#xac;" horiz-adv-x="968" d="M74 651v142h807v-543h-144v401h-663z" />
<glyph unicode="&#xad;" horiz-adv-x="589" d="M63 469v164h465v-164h-465z" />
<glyph unicode="&#xae;" horiz-adv-x="1701" d="M98 731q0 166 57.5 304.5t160 238.5t239.5 154.5t295 54.5q164 0 301 -57.5t238.5 -159t157 -238.5t55.5 -297q0 -164 -56.5 -301t-157 -238.5t-238.5 -156.5t-300 -55q-170 0 -308.5 58t-237.5 161.5t-152.5 239.5t-53.5 292zM213 731q0 -186 84 -331.5t227.5 -228.5 t325.5 -83q186 0 328.5 85t224.5 230.5t82 327.5t-82 328.5t-226.5 230.5t-326.5 84q-186 0 -330.5 -85t-225.5 -230.5t-81 -327.5zM578 293v883h245q322 0 322 -261q0 -88 -40 -146t-110 -91l209 -385h-166l-178 350h-135v-350h-147zM725 758h92q80 0 127 39t47 114 q0 141 -176 142h-90v-295z" />
<glyph unicode="&#xaf;" horiz-adv-x="931" d="M-8 1556v134h946v-134h-946z" />
<glyph unicode="&#xb0;" horiz-adv-x="786" d="M98 1194q0 133 83 210t212 77q127 0 211 -78t84 -209t-84 -208t-211 -77q-131 0 -213 78t-82 207zM221 1194q0 -80 46 -127t128 -47q80 0 125 48t45 126q0 80 -45 129t-125 49q-86 0 -130 -51t-44 -127z" />
<glyph unicode="&#xb1;" horiz-adv-x="968" d="M74 0v141h819v-141h-819zM74 680v141h338v416h143v-416h336v-141h-336v-412h-143v412h-338z" />
<glyph unicode="&#xb2;" horiz-adv-x="665" d="M51 850v115l199 223q63 72 101 123t55.5 95t17.5 97q0 57 -34 90t-91 33q-88 0 -176 -84l-70 90q49 53 112.5 84t141.5 31q123 0 190.5 -64.5t67.5 -171.5q0 -72 -25.5 -131t-77.5 -123.5t-130 -150.5l-121 -135h367v-121h-527z" />
<glyph unicode="&#xb3;" horiz-adv-x="665" d="M45 1649q57 47 119.5 72.5t138.5 25.5q123 0 190.5 -61.5t67.5 -163.5q0 -76 -37 -129.5t-102 -77.5v-8q166 -45 166 -217q0 -117 -83 -186.5t-226 -69.5q-125 0 -228 51v133q106 -63 228 -64q90 0 131 39t41 103q0 152 -193 151h-84v113h80q86 0 130 40t44 105 q0 59 -37 91t-96 32q-49 0 -92 -19.5t-88 -54.5z" />
<glyph unicode="&#xb4;" horiz-adv-x="552" d="M82 1241v23q53 76 102 155.5t84 149.5h203v-19q-25 -43 -74 -101t-104 -114.5t-100 -93.5h-111z" />
<glyph unicode="&#xb5;" horiz-adv-x="1040" d="M145 -492v1592h170v-705q0 -266 168 -266q135 0 187.5 101.5t52.5 295.5v574h170v-1100h-135l-23 150h-10q-37 -82 -99.5 -126t-140.5 -44q-115 0 -172 98h-6q4 -51 6 -105.5t2 -107.5v-357h-170z" />
<glyph unicode="&#xb6;" horiz-adv-x="1095" d="M121 1042q0 266 85 390t253 124h452v-1816h-118v1700h-156v-1700h-119v819q-43 -18 -98 -18q-145 0 -222 120.5t-77 380.5z" />
<glyph unicode="&#xb7;" horiz-adv-x="489" d="M129 723q0 68 30.5 100.5t84.5 32.5q51 0 83.5 -31t32.5 -102q0 -70 -32.5 -101.5t-83.5 -31.5t-83 32.5t-32 100.5z" />
<glyph unicode="&#xb8;" horiz-adv-x="428" d="M23 -369q39 -12 94 -12q137 0 137 98q0 53 -45 80t-121 37l76 166h104l-47 -104q80 -16 126 -61.5t46 -117.5q0 -102 -67.5 -155.5t-192.5 -53.5q-72 0 -110 13v110z" />
<glyph unicode="&#xb9;" horiz-adv-x="665" d="M78 1532l258 194h123v-876h-137v547q0 47 2 93t6 91q-16 -16 -33.5 -31.5t-32.5 -25.5l-117 -86z" />
<glyph unicode="&#xba;" horiz-adv-x="681" d="M63 1133q0 166 74 256t205 90q127 0 201.5 -88t74.5 -258q0 -168 -72.5 -259.5t-203.5 -91.5t-205 91.5t-74 259.5zM195 1133q0 -125 34.5 -183.5t110.5 -58.5q78 0 112.5 58.5t34.5 183.5q0 123 -34.5 180t-112.5 57q-70 0 -107.5 -57t-37.5 -180z" />
<glyph unicode="&#xbb;" horiz-adv-x="972" d="M76 193l235 348l-235 352l117 63l313 -401v-29l-313 -401zM469 193l236 348l-236 352l117 63l313 -401v-29l-313 -401z" />
<glyph unicode="&#xbc;" horiz-adv-x="1480" d="M59 1266l258 196h123v-876h-137v547q0 47 2 92t6 92q-16 -14 -32.5 -29.5t-32.5 -27.5l-117 -86zM299 0l793 1462h145l-795 -1462h-143zM852 190v101l350 590h139v-574h111v-117h-111v-190h-137v190h-352zM985 307h219v232v95t4 79q-6 -20 -23.5 -53t-35.5 -66z" />
<glyph unicode="&#xbd;" horiz-adv-x="1538" d="M53 1266l256 196h125v-876h-137v547q0 47 2 92t6 92q-18 -14 -34.5 -29.5t-30.5 -27.5l-117 -86zM262 0l791 1462h147l-794 -1462h-144zM926 0v115l196 221q66 72 105 123t56 95t17 97q0 57 -34.5 91t-94.5 34q-88 0 -174 -86l-69 92q49 53 112.5 84t141.5 31 q121 0 189.5 -64.5t68.5 -173.5q0 -72 -24.5 -130t-71 -115.5t-111.5 -128.5l-150 -164h367v-121h-524z" />
<glyph unicode="&#xbe;" horiz-adv-x="1523" d="M45 1382q57 49 118.5 75t137.5 26q123 0 191.5 -61.5t68.5 -164.5q0 -78 -39 -130t-102 -78v-7q168 -45 168 -217q0 -117 -83 -186.5t-226 -69.5q-129 0 -230 54v131q111 -63 230 -64q90 0 130 38t40 103q0 152 -193 152h-84v113h82q86 0 129 40t43 105q0 59 -36 91 t-97 32q-49 0 -92 -19.5t-88 -56.5zM344 0l793 1462h145l-793 -1462h-145zM895 190v101l350 590h137v-574h111v-117h-111v-190h-135v190h-352zM1026 307h221v232q0 49 1 95t3 79q-8 -20 -25.5 -53t-35.5 -66z" />
<glyph unicode="&#xbf;" horiz-adv-x="722" d="M45 -54q0 88 21.5 153.5t63.5 124t104 130.5q49 55 76.5 98t38 85t10.5 99v39h135v-57q0 -109 -27 -183.5t-100 -156.5q-86 -96 -120 -163.5t-34 -155.5q0 -98 47 -149.5t133 -51.5q70 0 126.5 21.5t113.5 56.5l63 -135q-70 -47 -146.5 -72t-164.5 -25q-164 0 -252 90 t-88 252zM307 974q0 70 33 101.5t82 31.5q53 0 84 -32.5t31 -100.5t-31 -100.5t-84 -32.5q-51 0 -83 31t-32 102z" />
<glyph unicode="&#xc0;" horiz-adv-x="1038" d="M0 0l420 1464h194l422 -1464h-184l-127 455h-414l-127 -455h-184zM217 1894v19h203q23 -47 55.5 -103.5t67 -109.5t63.5 -92v-23h-111q-41 37 -97 93.5t-106.5 114.5t-74.5 101zM348 616h338l-125 469q-10 45 -24.5 106.5t-20.5 106.5q-20 -111 -45 -213z" />
<glyph unicode="&#xc1;" horiz-adv-x="1038" d="M0 0l420 1464h194l422 -1464h-184l-127 455h-414l-127 -455h-184zM348 616h338l-125 469q-10 45 -24.5 106.5t-20.5 106.5q-20 -111 -45 -213zM453 1585v23q53 76 102 155.5t84 149.5h203v-19q-25 -43 -74 -101t-104 -114.5t-100 -93.5h-111z" />
<glyph unicode="&#xc2;" horiz-adv-x="1038" d="M0 0l420 1464h194l422 -1464h-184l-127 455h-414l-127 -455h-184zM225 1585v21q55 70 114.5 154.5t92.5 152.5h166q33 -70 95 -156t116 -151v-21h-103q-47 37 -94 87t-96 104q-51 -53 -99.5 -104.5t-89.5 -86.5h-102zM348 616h338l-125 469q-10 45 -24.5 106.5 t-20.5 106.5q-20 -111 -45 -213z" />
<glyph unicode="&#xc3;" horiz-adv-x="1038" d="M0 0l420 1464h194l422 -1464h-184l-127 455h-414l-127 -455h-184zM195 1583q10 104 54 179t132 75q53 0 101.5 -29.5t91.5 -58.5t84 -29q35 0 53 32t31 87h102q-10 -121 -58 -187.5t-126 -66.5q-51 0 -100.5 29.5t-94.5 59.5t-80 30q-66 0 -88 -121h-102zM348 616h338 l-125 469q-10 45 -24.5 106.5t-20.5 106.5q-20 -111 -45 -213z" />
<glyph unicode="&#xc4;" horiz-adv-x="1038" d="M0 0l420 1464h194l422 -1464h-184l-127 455h-414l-127 -455h-184zM252 1720q0 53 25.5 78t64.5 25q37 0 62.5 -24.5t25.5 -78.5q0 -53 -25.5 -79.5t-62.5 -26.5q-39 0 -64.5 26.5t-25.5 79.5zM348 616h338l-125 469q-10 45 -24.5 106.5t-20.5 106.5q-20 -111 -45 -213z M600 1720q0 53 26.5 78t63.5 25t63.5 -24.5t26.5 -78.5q0 -53 -26.5 -79.5t-63.5 -26.5q-39 0 -64.5 26.5t-25.5 79.5z" />
<glyph unicode="&#xc5;" horiz-adv-x="1038" d="M0 0l420 1464h194l422 -1464h-184l-127 455h-414l-127 -455h-184zM299 1577q0 94 58.5 151.5t158.5 57.5q94 0 156.5 -55.5t62.5 -149.5q0 -98 -60.5 -155.5t-158.5 -57.5q-100 0 -158.5 57.5t-58.5 151.5zM348 616h338l-125 469q-10 45 -24.5 106.5t-20.5 106.5 q-20 -111 -45 -213zM405 1577q0 -49 29 -78.5t84 -29.5q47 0 79 29.5t32 78.5t-30 80t-81 31q-49 0 -81 -31t-32 -80z" />
<glyph unicode="&#xc6;" horiz-adv-x="1425" d="M-4 0l516 1462h809v-157h-459v-463h428v-156h-428v-528h459v-158h-635v455h-344l-158 -455h-188zM393 616h295v687h-61z" />
<glyph unicode="&#xc7;" horiz-adv-x="1028" d="M109 733q0 213 61 383t185 269.5t309 99.5q172 0 311 -78l-66 -150q-53 31 -113 50.5t-130 19.5q-125 0 -208 -80t-124 -215t-41 -301q0 -276 99.5 -435t279.5 -159q72 0 136 15.5t124 40.5v-156q-59 -29 -127 -43t-154 -14q-172 0 -292.5 91t-185 260t-64.5 402z M426 -369q39 -12 94 -12q137 0 137 98q0 53 -45 80t-121 37l76 166h104l-47 -104q80 -16 126 -61.5t46 -117.5q0 -102 -67.5 -155.5t-192.5 -53.5q-72 0 -110 13v110z" />
<glyph unicode="&#xc8;" horiz-adv-x="917" d="M164 0v1462h653v-155h-477v-465h448v-156h-448v-528h477v-158h-653zM211 1894v19h203q23 -47 55.5 -103.5t67 -109.5t63.5 -92v-23h-111q-41 37 -97 93.5t-106.5 114.5t-74.5 101z" />
<glyph unicode="&#xc9;" horiz-adv-x="917" d="M164 0v1462h653v-155h-477v-465h448v-156h-448v-528h477v-158h-653zM412 1585v23q53 76 102 155.5t84 149.5h203v-19q-25 -43 -74 -101t-104 -114.5t-100 -93.5h-111z" />
<glyph unicode="&#xca;" horiz-adv-x="917" d="M164 0v1462h653v-155h-477v-465h448v-156h-448v-528h477v-158h-653zM205 1585v21q55 70 114.5 154.5t92.5 152.5h166q33 -70 95 -156t116 -151v-21h-103q-47 37 -94 87t-96 104q-51 -53 -99.5 -104.5t-89.5 -86.5h-102z" />
<glyph unicode="&#xcb;" horiz-adv-x="917" d="M164 0v1462h653v-155h-477v-465h448v-156h-448v-528h477v-158h-653zM226 1720q0 53 25.5 78t64.5 25q37 0 62.5 -24.5t25.5 -78.5q0 -53 -25.5 -79.5t-62.5 -26.5q-39 0 -64.5 26.5t-25.5 79.5zM574 1720q0 53 26.5 78t63.5 25t63.5 -24.5t26.5 -78.5q0 -53 -26.5 -79.5 t-63.5 -26.5q-39 0 -64.5 26.5t-25.5 79.5z" />
<glyph unicode="&#xcc;" horiz-adv-x="614" d="M21 1894v19h203q23 -47 55.5 -103.5t67 -109.5t63.5 -92v-23h-111q-41 37 -97 93.5t-106.5 114.5t-74.5 101zM74 0v100l143 37v1188l-143 37v100h465v-100l-146 -37v-1188l146 -37v-100h-465z" />
<glyph unicode="&#xcd;" horiz-adv-x="614" d="M74 0v100l143 37v1188l-143 37v100h465v-100l-146 -37v-1188l146 -37v-100h-465zM244 1585v23q53 76 102 155.5t84 149.5h203v-19q-25 -43 -74 -101t-104 -114.5t-100 -93.5h-111z" />
<glyph unicode="&#xce;" horiz-adv-x="614" d="M19 1585v21q55 70 114.5 154.5t92.5 152.5h166q33 -70 95 -156t116 -151v-21h-103q-47 37 -94 87t-96 104q-51 -53 -99.5 -104.5t-89.5 -86.5h-102zM74 0v100l143 37v1188l-143 37v100h465v-100l-146 -37v-1188l146 -37v-100h-465z" />
<glyph unicode="&#xcf;" horiz-adv-x="614" d="M41 1720q0 53 25.5 78t64.5 25q37 0 62.5 -24.5t25.5 -78.5q0 -53 -25.5 -79.5t-62.5 -26.5q-39 0 -64.5 26.5t-25.5 79.5zM74 0v100l143 37v1188l-143 37v100h465v-100l-146 -37v-1188l146 -37v-100h-465zM389 1720q0 53 26.5 78t63.5 25t63.5 -24.5t26.5 -78.5 q0 -53 -26.5 -79.5t-63.5 -26.5q-39 0 -64.5 26.5t-25.5 79.5z" />
<glyph unicode="&#xd0;" horiz-adv-x="1187" d="M49 670v145h119v647h344q270 0 418.5 -182t148.5 -532q0 -371 -151.5 -559.5t-435.5 -188.5h-324v670h-119zM344 156h137q211 0 313.5 147.5t102.5 437.5q0 287 -101 426.5t-294 139.5h-158v-492h248v-145h-248v-514z" />
<glyph unicode="&#xd1;" horiz-adv-x="1282" d="M164 0v1462h211l583 -1183h7q-4 78 -7.5 164.5t-3.5 158.5v860h166v-1462h-211l-585 1198h-9q6 -80 10.5 -164t4.5 -162v-872h-166zM324 1583q10 104 54 179t132 75q53 0 101.5 -29.5t91.5 -58.5t84 -29q35 0 53 32t31 87h102q-10 -121 -58 -187.5t-126 -66.5 q-51 0 -100.5 29.5t-94.5 59.5t-80 30q-66 0 -88 -121h-102z" />
<glyph unicode="&#xd2;" horiz-adv-x="1267" d="M109 735q0 365 132 556.5t396 191.5q182 0 298 -98.5t171 -267.5t55 -384t-55 -386t-172 -269t-299 -98q-186 0 -302 100t-170 271t-54 384zM293 733q0 -289 85 -442.5t257 -153.5q170 0 255 152.5t85 443.5t-84 441.5t-254 150.5q-174 0 -259 -151.5t-85 -440.5z M340 1894v19h203q23 -47 55.5 -103.5t67 -109.5t63.5 -92v-23h-111q-41 37 -97 93.5t-106.5 114.5t-74.5 101z" />
<glyph unicode="&#xd3;" horiz-adv-x="1267" d="M109 735q0 365 132 556.5t396 191.5q182 0 298 -98.5t171 -267.5t55 -384t-55 -386t-172 -269t-299 -98q-186 0 -302 100t-170 271t-54 384zM293 733q0 -289 85 -442.5t257 -153.5q170 0 255 152.5t85 443.5t-84 441.5t-254 150.5q-174 0 -259 -151.5t-85 -440.5z M565 1585v23q53 76 102 155.5t84 149.5h203v-19q-25 -43 -74 -101t-104 -114.5t-100 -93.5h-111z" />
<glyph unicode="&#xd4;" horiz-adv-x="1267" d="M109 735q0 365 132 556.5t396 191.5q182 0 298 -98.5t171 -267.5t55 -384t-55 -386t-172 -269t-299 -98q-186 0 -302 100t-170 271t-54 384zM293 733q0 -289 85 -442.5t257 -153.5q170 0 255 152.5t85 443.5t-84 441.5t-254 150.5q-174 0 -259 -151.5t-85 -440.5z M344 1585v21q55 70 114.5 154.5t92.5 152.5h166q33 -70 95 -156t116 -151v-21h-103q-47 37 -94 87t-96 104q-51 -53 -99.5 -104.5t-89.5 -86.5h-102z" />
<glyph unicode="&#xd5;" horiz-adv-x="1267" d="M109 735q0 365 132 556.5t396 191.5q182 0 298 -98.5t171 -267.5t55 -384t-55 -386t-172 -269t-299 -98q-186 0 -302 100t-170 271t-54 384zM293 733q0 -289 85 -442.5t257 -153.5q170 0 255 152.5t85 443.5t-84 441.5t-254 150.5q-174 0 -259 -151.5t-85 -440.5z M315 1583q10 104 54 179t132 75q53 0 101.5 -29.5t91.5 -58.5t84 -29q35 0 53 32t31 87h102q-10 -121 -58 -187.5t-126 -66.5q-51 0 -100.5 29.5t-94.5 59.5t-80 30q-66 0 -88 -121h-102z" />
<glyph unicode="&#xd6;" horiz-adv-x="1267" d="M109 735q0 365 132 556.5t396 191.5q182 0 298 -98.5t171 -267.5t55 -384t-55 -386t-172 -269t-299 -98q-186 0 -302 100t-170 271t-54 384zM293 733q0 -289 85 -442.5t257 -153.5q170 0 255 152.5t85 443.5t-84 441.5t-254 150.5q-174 0 -259 -151.5t-85 -440.5z M375 1720q0 53 25.5 78t64.5 25q37 0 62.5 -24.5t25.5 -78.5q0 -53 -25.5 -79.5t-62.5 -26.5q-39 0 -64.5 26.5t-25.5 79.5zM723 1720q0 53 26.5 78t63.5 25t63.5 -24.5t26.5 -78.5q0 -53 -26.5 -79.5t-63.5 -26.5q-39 0 -64.5 26.5t-25.5 79.5z" />
<glyph unicode="&#xd7;" horiz-adv-x="968" d="M86 424l297 299l-297 297l96 100l299 -299l301 301l101 -96l-301 -303l297 -299l-97 -98l-301 297l-297 -297z" />
<glyph unicode="&#xd8;" horiz-adv-x="1267" d="M109 735q0 365 132 556.5t396 191.5q172 0 293 -103l90 160l110 -61l-108 -195q139 -195 139 -551q0 -358 -134 -555.5t-392 -197.5q-174 0 -291 94l-90 -162l-111 57l107 199q-72 102 -106.5 243.5t-34.5 323.5zM291 733q0 -242 61 -383l498 879q-78 98 -213 98 q-174 0 -260 -152.5t-86 -441.5zM424 225q80 -90 211 -90q174 0 258 153.5t84 444.5q0 111 -14.5 203t-42.5 164z" />
<glyph unicode="&#xd9;" horiz-adv-x="1198" d="M152 475v987h176v-989q0 -172 69.5 -254t204.5 -82q137 0 201.5 84t64.5 254v987h176v-987q0 -242 -110.5 -368.5t-335.5 -126.5q-217 0 -331.5 125.5t-114.5 369.5zM313 1894v19h203q23 -47 55.5 -103.5t67 -109.5t63.5 -92v-23h-111q-41 37 -97 93.5t-106.5 114.5 t-74.5 101z" />
<glyph unicode="&#xda;" horiz-adv-x="1198" d="M152 475v987h176v-989q0 -172 69.5 -254t204.5 -82q137 0 201.5 84t64.5 254v987h176v-987q0 -242 -110.5 -368.5t-335.5 -126.5q-217 0 -331.5 125.5t-114.5 369.5zM526 1585v23q53 76 102 155.5t84 149.5h203v-19q-25 -43 -74 -101t-104 -114.5t-100 -93.5h-111z" />
<glyph unicode="&#xdb;" horiz-adv-x="1198" d="M152 475v987h176v-989q0 -172 69.5 -254t204.5 -82q137 0 201.5 84t64.5 254v987h176v-987q0 -242 -110.5 -368.5t-335.5 -126.5q-217 0 -331.5 125.5t-114.5 369.5zM309 1585v21q55 70 114.5 154.5t92.5 152.5h166q33 -70 95 -156t116 -151v-21h-103q-47 37 -94 87 t-96 104q-51 -53 -99.5 -104.5t-89.5 -86.5h-102z" />
<glyph unicode="&#xdc;" horiz-adv-x="1198" d="M152 475v987h176v-989q0 -172 69.5 -254t204.5 -82q137 0 201.5 84t64.5 254v987h176v-987q0 -242 -110.5 -368.5t-335.5 -126.5q-217 0 -331.5 125.5t-114.5 369.5zM336 1720q0 53 25.5 78t64.5 25q37 0 62.5 -24.5t25.5 -78.5q0 -53 -25.5 -79.5t-62.5 -26.5 q-39 0 -64.5 26.5t-25.5 79.5zM684 1720q0 53 26.5 78t63.5 25t63.5 -24.5t26.5 -78.5q0 -53 -26.5 -79.5t-63.5 -26.5q-39 0 -64.5 26.5t-25.5 79.5z" />
<glyph unicode="&#xdd;" horiz-adv-x="909" d="M0 1462h186l271 -696l268 696h184l-366 -893v-569h-176v563zM387 1585v23q53 76 102 155.5t84 149.5h203v-19q-25 -43 -74 -101t-104 -114.5t-100 -93.5h-111z" />
<glyph unicode="&#xde;" horiz-adv-x="997" d="M164 0v1462h176v-254h127q240 0 349.5 -107.5t109.5 -316.5q0 -141 -47.5 -246.5t-150.5 -164t-271 -58.5h-117v-315h-176zM340 471h100q166 0 237 72.5t71 230.5q0 143 -69 211t-218 68h-121v-582z" />
<glyph unicode="&#xdf;" horiz-adv-x="1042" d="M145 0v1180q0 190 101.5 288.5t271.5 98.5q160 0 253 -77.5t93 -227.5q0 -80 -32.5 -137.5t-75.5 -101.5t-76 -86t-33 -91t29 -90t102 -105q68 -61 110 -112.5t62.5 -104.5t20.5 -123q0 -162 -86 -246.5t-236 -84.5q-63 0 -122.5 14t-106.5 45v162q45 -29 99 -51.5 t120 -22.5q82 0 122 46t40 126q0 68 -34 120t-116 122q-100 88 -136 156.5t-36 138.5q0 74 32 123t75 90t74.5 89t31.5 117q0 82 -47 123t-131 41q-88 0 -143.5 -58t-55.5 -183v-1178h-170z" />
<glyph unicode="&#xe0;" horiz-adv-x="942" d="M78 307q0 164 104.5 253t306.5 97l144 7v69q0 131 -42 188.5t-130 57.5q-59 0 -117.5 -19.5t-120.5 -52.5l-53 127q66 39 145.5 61.5t167.5 22.5q168 0 243 -95t75 -280v-743h-129l-27 154h-6q-51 -88 -117.5 -131t-169.5 -43q-133 0 -203.5 93t-70.5 234zM223 1550v19 h203q23 -47 55.5 -103.5t67 -109.5t63.5 -92v-23h-111q-41 37 -97 93.5t-106.5 114.5t-74.5 101zM252 309q0 -98 42 -144t112 -46q102 0 164.5 82t62.5 235v107l-117 -6q-141 -6 -202.5 -63.5t-61.5 -164.5z" />
<glyph unicode="&#xe1;" horiz-adv-x="942" d="M78 307q0 164 104.5 253t306.5 97l144 7v69q0 131 -42 188.5t-130 57.5q-59 0 -117.5 -19.5t-120.5 -52.5l-53 127q66 39 145.5 61.5t167.5 22.5q168 0 243 -95t75 -280v-743h-129l-27 154h-6q-51 -88 -117.5 -131t-169.5 -43q-133 0 -203.5 93t-70.5 234zM252 309 q0 -98 42 -144t112 -46q102 0 164.5 82t62.5 235v107l-117 -6q-141 -6 -202.5 -63.5t-61.5 -164.5zM371 1241v23q53 76 102 155.5t84 149.5h203v-19q-25 -43 -74 -101t-104 -114.5t-100 -93.5h-111z" />
<glyph unicode="&#xe2;" horiz-adv-x="942" d="M78 307q0 164 104.5 253t306.5 97l144 7v69q0 131 -42 188.5t-130 57.5q-59 0 -117.5 -19.5t-120.5 -52.5l-53 127q66 39 145.5 61.5t167.5 22.5q168 0 243 -95t75 -280v-743h-129l-27 154h-6q-51 -88 -117.5 -131t-169.5 -43q-133 0 -203.5 93t-70.5 234zM188 1241v21 q55 70 114.5 154.5t92.5 152.5h166q33 -70 95 -156t116 -151v-21h-103q-47 37 -94 87t-96 104q-51 -53 -99.5 -104.5t-89.5 -86.5h-102zM252 309q0 -98 42 -144t112 -46q102 0 164.5 82t62.5 235v107l-117 -6q-141 -6 -202.5 -63.5t-61.5 -164.5z" />
<glyph unicode="&#xe3;" horiz-adv-x="942" d="M78 307q0 164 104.5 253t306.5 97l144 7v69q0 131 -42 188.5t-130 57.5q-59 0 -117.5 -19.5t-120.5 -52.5l-53 127q66 39 145.5 61.5t167.5 22.5q168 0 243 -95t75 -280v-743h-129l-27 154h-6q-51 -88 -117.5 -131t-169.5 -43q-133 0 -203.5 93t-70.5 234zM154 1239 q10 104 54 179t132 75q53 0 101.5 -29.5t91.5 -58.5t84 -29q35 0 53 32t31 87h102q-10 -121 -58 -187.5t-126 -66.5q-51 0 -100.5 29.5t-94.5 59.5t-80 30q-66 0 -88 -121h-102zM252 309q0 -98 42 -144t112 -46q102 0 164.5 82t62.5 235v107l-117 -6q-141 -6 -202.5 -63.5 t-61.5 -164.5z" />
<glyph unicode="&#xe4;" horiz-adv-x="942" d="M78 307q0 164 104.5 253t306.5 97l144 7v69q0 131 -42 188.5t-130 57.5q-59 0 -117.5 -19.5t-120.5 -52.5l-53 127q66 39 145.5 61.5t167.5 22.5q168 0 243 -95t75 -280v-743h-129l-27 154h-6q-51 -88 -117.5 -131t-169.5 -43q-133 0 -203.5 93t-70.5 234zM215 1376 q0 53 25.5 78t64.5 25q37 0 62.5 -24.5t25.5 -78.5q0 -53 -25.5 -79.5t-62.5 -26.5q-39 0 -64.5 26.5t-25.5 79.5zM252 309q0 -98 42 -144t112 -46q102 0 164.5 82t62.5 235v107l-117 -6q-141 -6 -202.5 -63.5t-61.5 -164.5zM563 1376q0 53 26.5 78t63.5 25t63.5 -24.5 t26.5 -78.5q0 -53 -26.5 -79.5t-63.5 -26.5q-39 0 -64.5 26.5t-25.5 79.5z" />
<glyph unicode="&#xe5;" horiz-adv-x="942" d="M78 307q0 164 104.5 253t306.5 97l144 7v69q0 131 -42 188.5t-130 57.5q-59 0 -117.5 -19.5t-120.5 -52.5l-53 127q66 39 145.5 61.5t167.5 22.5q168 0 243 -95t75 -280v-743h-129l-27 154h-6q-51 -88 -117.5 -131t-169.5 -43q-133 0 -203.5 93t-70.5 234zM252 309 q0 -98 42 -144t112 -46q102 0 164.5 82t62.5 235v107l-117 -6q-141 -6 -202.5 -63.5t-61.5 -164.5zM262 1454q0 94 58.5 151.5t158.5 57.5q94 0 156.5 -55.5t62.5 -149.5q0 -98 -60.5 -155.5t-158.5 -57.5q-100 0 -158.5 57.5t-58.5 151.5zM368 1454q0 -49 29 -78.5 t84 -29.5q47 0 79 29.5t32 78.5t-30 80t-81 31q-49 0 -81 -31t-32 -80z" />
<glyph unicode="&#xe6;" horiz-adv-x="1460" d="M78 307q0 164 102.5 253t300.5 97l142 7v71q0 125 -43 184.5t-129 59.5q-55 0 -116 -18.5t-120 -53.5l-55 127q61 37 139 60.5t166 23.5q199 0 264 -155q95 155 279 155q119 0 198.5 -63.5t120.5 -174t41 -249.5v-113h-575q8 -395 262 -395q137 0 270 74v-148 q-63 -35 -131 -52t-152 -17q-117 0 -209 57t-141 168q-57 -115 -136 -170t-196 -55q-139 0 -210.5 93t-71.5 234zM252 309q0 -98 40 -144t109 -46q100 0 161 82t61 235v107l-115 -6q-135 -6 -195.5 -62.5t-60.5 -165.5zM797 651h407q0 141 -48 234.5t-150 93.5 q-195 0 -209 -328z" />
<glyph unicode="&#xe7;" horiz-adv-x="792" d="M96 543q0 281 106.5 429t305.5 148q70 0 129 -15t104 -40l-51 -139q-41 18 -87 30.5t-87 12.5q-246 0 -246 -424q0 -418 244 -418q57 0 110.5 15.5t102.5 39.5v-145q-47 -29 -106.5 -43t-118.5 -14q-195 0 -300.5 139t-105.5 424zM299 -369q39 -12 94 -12q137 0 137 98 q0 53 -45 80t-121 37l76 166h104l-47 -104q80 -16 126 -61.5t46 -117.5q0 -102 -67.5 -155.5t-192.5 -53.5q-72 0 -110 13v110z" />
<glyph unicode="&#xe8;" horiz-adv-x="946" d="M96 543q0 276 101.5 425.5t289.5 149.5q121 0 203 -63.5t124 -174t42 -249.5v-115h-590q6 -391 275 -391q141 0 272 76v-152q-66 -35 -134.5 -52t-152.5 -17q-145 0 -240.5 71.5t-142.5 198.5t-47 293zM223 1550v19h203q23 -47 55.5 -103.5t67 -109.5t63.5 -92v-23h-111 q-41 37 -97 93.5t-106.5 114.5t-74.5 101zM268 651h424q-2 137 -51.5 232.5t-153.5 95.5q-201 0 -219 -328z" />
<glyph unicode="&#xe9;" horiz-adv-x="946" d="M96 543q0 276 101.5 425.5t289.5 149.5q121 0 203 -63.5t124 -174t42 -249.5v-115h-590q6 -391 275 -391q141 0 272 76v-152q-66 -35 -134.5 -52t-152.5 -17q-145 0 -240.5 71.5t-142.5 198.5t-47 293zM268 651h424q-2 137 -51.5 232.5t-153.5 95.5q-201 0 -219 -328z M371 1241v23q53 76 102 155.5t84 149.5h203v-19q-25 -43 -74 -101t-104 -114.5t-100 -93.5h-111z" />
<glyph unicode="&#xea;" horiz-adv-x="946" d="M96 543q0 276 101.5 425.5t289.5 149.5q121 0 203 -63.5t124 -174t42 -249.5v-115h-590q6 -391 275 -391q141 0 272 76v-152q-66 -35 -134.5 -52t-152.5 -17q-145 0 -240.5 71.5t-142.5 198.5t-47 293zM188 1241v21q55 70 114.5 154.5t92.5 152.5h166q33 -70 95 -156 t116 -151v-21h-103q-47 37 -94 87t-96 104q-51 -53 -99.5 -104.5t-89.5 -86.5h-102zM268 651h424q-2 137 -51.5 232.5t-153.5 95.5q-201 0 -219 -328z" />
<glyph unicode="&#xeb;" horiz-adv-x="946" d="M96 543q0 276 101.5 425.5t289.5 149.5q121 0 203 -63.5t124 -174t42 -249.5v-115h-590q6 -391 275 -391q141 0 272 76v-152q-66 -35 -134.5 -52t-152.5 -17q-145 0 -240.5 71.5t-142.5 198.5t-47 293zM215 1376q0 53 25.5 78t64.5 25q37 0 62.5 -24.5t25.5 -78.5 q0 -53 -25.5 -79.5t-62.5 -26.5q-39 0 -64.5 26.5t-25.5 79.5zM268 651h424q-2 137 -51.5 232.5t-153.5 95.5q-201 0 -219 -328zM563 1376q0 53 26.5 78t63.5 25t63.5 -24.5t26.5 -78.5q0 -53 -26.5 -79.5t-63.5 -26.5q-39 0 -64.5 26.5t-25.5 79.5z" />
<glyph unicode="&#xec;" horiz-adv-x="460" d="M-24 1550v19h203q23 -47 55.5 -103.5t67 -109.5t63.5 -92v-23h-111q-41 37 -97 93.5t-106.5 114.5t-74.5 101zM145 0v1100h170v-1100h-170z" />
<glyph unicode="&#xed;" horiz-adv-x="460" d="M121 1241v23q53 76 102 155.5t84 149.5h203v-19q-25 -43 -74 -101t-104 -114.5t-100 -93.5h-111zM145 0v1100h170v-1100h-170z" />
<glyph unicode="&#xee;" horiz-adv-x="460" d="M-61 1241v21q55 70 114.5 154.5t92.5 152.5h166q33 -70 95 -156t116 -151v-21h-103q-47 37 -94 87t-96 104q-51 -53 -99.5 -104.5t-89.5 -86.5h-102zM145 0v1100h170v-1100h-170z" />
<glyph unicode="&#xef;" horiz-adv-x="460" d="M-35 1376q0 53 25.5 78t64.5 25q37 0 62.5 -24.5t25.5 -78.5q0 -53 -25.5 -79.5t-62.5 -26.5q-39 0 -64.5 26.5t-25.5 79.5zM145 0v1100h170v-1100h-170zM313 1376q0 53 26.5 78t63.5 25t63.5 -24.5t26.5 -78.5q0 -53 -26.5 -79.5t-63.5 -26.5q-39 0 -64.5 26.5 t-25.5 79.5z" />
<glyph unicode="&#xf0;" horiz-adv-x="1011" d="M94 477q0 236 104.5 365t278.5 129q158 0 234 -101l6 2q-25 115 -79 214.5t-130 185.5l-191 -119l-67 98l172 107q-33 29 -68 53.5t-67 46.5l73 105q45 -25 92.5 -55.5t92.5 -65.5l188 117l70 -97l-172 -104q137 -147 213 -349t76 -468q0 -276 -107.5 -418.5 t-308.5 -142.5q-127 0 -219 65.5t-141.5 178t-49.5 253.5zM266 471q0 -147 57.5 -246.5t184.5 -99.5t183.5 93t56.5 278q0 90 -27 164.5t-79 119.5t-134 45q-121 0 -181.5 -90t-60.5 -264z" />
<glyph unicode="&#xf1;" horiz-adv-x="1034" d="M145 0v1100h138l20 -150h10q41 82 114 126t159 44q152 0 229.5 -93t77.5 -290v-737h-170v709q0 131 -40 196.5t-130 65.5q-131 0 -184.5 -96.5t-53.5 -303.5v-571h-170zM203 1239q10 104 54 179t132 75q53 0 101.5 -29.5t91.5 -58.5t84 -29q35 0 53 32t31 87h102 q-10 -121 -58 -187.5t-126 -66.5q-51 0 -100.5 29.5t-94.5 59.5t-80 30q-66 0 -88 -121h-102z" />
<glyph unicode="&#xf2;" horiz-adv-x="1009" d="M94 551q0 272 103.5 420.5t308.5 148.5q190 0 299.5 -145t109.5 -424q0 -260 -104 -415.5t-309 -155.5q-195 0 -301.5 154.5t-106.5 416.5zM250 1550v19h203q23 -47 55.5 -103.5t67 -109.5t63.5 -92v-23h-111q-41 37 -97 93.5t-106.5 114.5t-74.5 101zM268 551 q0 -207 57.5 -315.5t180.5 -108.5q121 0 179 108.5t58 315.5t-58 314.5t-179 107.5q-125 0 -181.5 -107.5t-56.5 -314.5z" />
<glyph unicode="&#xf3;" horiz-adv-x="1009" d="M94 551q0 272 103.5 420.5t308.5 148.5q190 0 299.5 -145t109.5 -424q0 -260 -104 -415.5t-309 -155.5q-195 0 -301.5 154.5t-106.5 416.5zM268 551q0 -207 57.5 -315.5t180.5 -108.5q121 0 179 108.5t58 315.5t-58 314.5t-179 107.5q-125 0 -181.5 -107.5t-56.5 -314.5z M395 1241v23q53 76 102 155.5t84 149.5h203v-19q-25 -43 -74 -101t-104 -114.5t-100 -93.5h-111z" />
<glyph unicode="&#xf4;" horiz-adv-x="1009" d="M94 551q0 272 103.5 420.5t308.5 148.5q190 0 299.5 -145t109.5 -424q0 -260 -104 -415.5t-309 -155.5q-195 0 -301.5 154.5t-106.5 416.5zM213 1241v21q55 70 114.5 154.5t92.5 152.5h166q33 -70 95 -156t116 -151v-21h-103q-47 37 -94 87t-96 104q-51 -53 -99.5 -104.5 t-89.5 -86.5h-102zM268 551q0 -207 57.5 -315.5t180.5 -108.5q121 0 179 108.5t58 315.5t-58 314.5t-179 107.5q-125 0 -181.5 -107.5t-56.5 -314.5z" />
<glyph unicode="&#xf5;" horiz-adv-x="1009" d="M94 551q0 272 103.5 420.5t308.5 148.5q190 0 299.5 -145t109.5 -424q0 -260 -104 -415.5t-309 -155.5q-195 0 -301.5 154.5t-106.5 416.5zM180 1239q10 104 54 179t132 75q53 0 101.5 -29.5t91.5 -58.5t84 -29q35 0 53 32t31 87h102q-10 -121 -58 -187.5t-126 -66.5 q-51 0 -100.5 29.5t-94.5 59.5t-80 30q-66 0 -88 -121h-102zM268 551q0 -207 57.5 -315.5t180.5 -108.5q121 0 179 108.5t58 315.5t-58 314.5t-179 107.5q-125 0 -181.5 -107.5t-56.5 -314.5z" />
<glyph unicode="&#xf6;" horiz-adv-x="1009" d="M94 551q0 272 103.5 420.5t308.5 148.5q190 0 299.5 -145t109.5 -424q0 -260 -104 -415.5t-309 -155.5q-195 0 -301.5 154.5t-106.5 416.5zM240 1376q0 53 25.5 78t64.5 25q37 0 62.5 -24.5t25.5 -78.5q0 -53 -25.5 -79.5t-62.5 -26.5q-39 0 -64.5 26.5t-25.5 79.5z M268 551q0 -207 57.5 -315.5t180.5 -108.5q121 0 179 108.5t58 315.5t-58 314.5t-179 107.5q-125 0 -181.5 -107.5t-56.5 -314.5zM588 1376q0 53 26.5 78t63.5 25t63.5 -24.5t26.5 -78.5q0 -53 -26.5 -79.5t-63.5 -26.5q-39 0 -64.5 26.5t-25.5 79.5z" />
<glyph unicode="&#xf7;" horiz-adv-x="968" d="M74 651v142h817v-142h-817zM377 360q0 66 28.5 96.5t79.5 30.5q47 0 76 -30.5t29 -96.5t-30 -95t-75 -29q-51 0 -79.5 30.5t-28.5 93.5zM377 1083q0 63 28.5 94t79.5 31q47 0 76 -30.5t29 -94.5q0 -66 -30 -96.5t-75 -30.5q-51 0 -79.5 32t-28.5 95z" />
<glyph unicode="&#xf8;" horiz-adv-x="1009" d="M92 551q0 279 107.5 424t306.5 145q125 0 213 -73l78 141l106 -58l-92 -172q104 -151 104 -407q0 -272 -109.5 -421.5t-305.5 -149.5q-121 0 -207 61l-82 -156l-107 58l101 184q-113 152 -113 424zM264 551q0 -160 35 -258l350 620q-55 61 -145 62q-127 0 -183.5 -107.5 t-56.5 -316.5zM367 174q51 -51 137 -51q125 0 183 109.5t58 318.5q0 74 -8 134t-22 106z" />
<glyph unicode="&#xf9;" horiz-adv-x="1034" d="M139 381v719h170v-692q0 -143 41 -211t127 -68q135 0 187.5 97.5t52.5 291.5v582h172v-1100h-139l-21 147h-10q-41 -82 -112.5 -124.5t-157.5 -42.5q-164 0 -237 105t-73 296zM262 1550v19h203q23 -47 55.5 -103.5t67 -109.5t63.5 -92v-23h-111q-41 37 -97 93.5 t-106.5 114.5t-74.5 101z" />
<glyph unicode="&#xfa;" horiz-adv-x="1034" d="M139 381v719h170v-692q0 -143 41 -211t127 -68q135 0 187.5 97.5t52.5 291.5v582h172v-1100h-139l-21 147h-10q-41 -82 -112.5 -124.5t-157.5 -42.5q-164 0 -237 105t-73 296zM410 1241v23q53 76 102 155.5t84 149.5h203v-19q-25 -43 -74 -101t-104 -114.5t-100 -93.5 h-111z" />
<glyph unicode="&#xfb;" horiz-adv-x="1034" d="M139 381v719h170v-692q0 -143 41 -211t127 -68q135 0 187.5 97.5t52.5 291.5v582h172v-1100h-139l-21 147h-10q-41 -82 -112.5 -124.5t-157.5 -42.5q-164 0 -237 105t-73 296zM227 1241v21q55 70 114.5 154.5t92.5 152.5h166q33 -70 95 -156t116 -151v-21h-103 q-47 37 -94 87t-96 104q-51 -53 -99.5 -104.5t-89.5 -86.5h-102z" />
<glyph unicode="&#xfc;" horiz-adv-x="1034" d="M139 381v719h170v-692q0 -143 41 -211t127 -68q135 0 187.5 97.5t52.5 291.5v582h172v-1100h-139l-21 147h-10q-41 -82 -112.5 -124.5t-157.5 -42.5q-164 0 -237 105t-73 296zM254 1376q0 53 25.5 78t64.5 25q37 0 62.5 -24.5t25.5 -78.5q0 -53 -25.5 -79.5t-62.5 -26.5 q-39 0 -64.5 26.5t-25.5 79.5zM602 1376q0 53 26.5 78t63.5 25t63.5 -24.5t26.5 -78.5q0 -53 -26.5 -79.5t-63.5 -26.5q-39 0 -64.5 26.5t-25.5 79.5z" />
<glyph unicode="&#xfd;" horiz-adv-x="843" d="M6 1100h178l176 -625q18 -66 35 -132.5t27 -131.5h8q8 55 24.5 123.5t37.5 142.5l170 623h176l-369 -1262q-49 -164 -124 -247t-202 -83q-33 0 -61.5 4.5t-54.5 12.5v145q20 -4 44.5 -8t47.5 -4q70 0 109.5 48t72.5 157l41 141zM313 1241v23q53 76 102 155.5t84 149.5 h203v-19q-25 -43 -74 -101t-104 -114.5t-100 -93.5h-111z" />
<glyph unicode="&#xfe;" horiz-adv-x="1040" d="M145 -492v2048h170v-446q0 -39 -2 -81t-4 -79h6q45 82 113 126t158 44q172 0 267 -145t95 -424q0 -274 -94 -422.5t-260 -148.5q-94 0 -166 45t-113 120h-8q4 -37 7 -79.5t3 -75.5v-482h-172zM315 545q0 -213 55.5 -315.5t182.5 -102.5q82 0 130 55.5t68.5 151.5 t20.5 217q0 217 -53 319.5t-168 102.5q-123 0 -178.5 -94.5t-57.5 -292.5v-41z" />
<glyph unicode="&#xff;" horiz-adv-x="843" d="M6 1100h178l176 -625q18 -66 35 -132.5t27 -131.5h8q8 55 24.5 123.5t37.5 142.5l170 623h176l-369 -1262q-49 -164 -124 -247t-202 -83q-33 0 -61.5 4.5t-54.5 12.5v145q20 -4 44.5 -8t47.5 -4q70 0 109.5 48t72.5 157l41 141zM158 1376q0 53 25.5 78t64.5 25 q37 0 62.5 -24.5t25.5 -78.5q0 -53 -25.5 -79.5t-62.5 -26.5q-39 0 -64.5 26.5t-25.5 79.5zM506 1376q0 53 26.5 78t63.5 25t63.5 -24.5t26.5 -78.5q0 -53 -26.5 -79.5t-63.5 -26.5q-39 0 -64.5 26.5t-25.5 79.5z" />
<glyph unicode="&#x152;" horiz-adv-x="1497" d="M109 735q0 348 137 545t411 197q39 0 76 -4.5t70 -10.5h592v-155h-463v-465h434v-156h-434v-528h463v-158h-586q-35 -4 -73 -8t-79 -4q-281 0 -414.5 198.5t-133.5 548.5zM293 733q0 -180 36 -311t117.5 -203t219.5 -74q55 0 92 13v1145q-20 8 -43.5 12t-50.5 4 q-139 -2 -220.5 -73.5t-116 -203t-34.5 -309.5z" />
<glyph unicode="&#x153;" horiz-adv-x="1576" d="M94 551q0 272 104.5 419.5t305.5 147.5q215 0 313 -205q96 205 305 205q121 0 202 -63.5t121 -174t40 -249.5v-115h-582q2 -393 268 -393q74 0 138.5 18.5t132.5 55.5v-148q-66 -35 -132.5 -52t-148.5 -17q-233 0 -342 206q-96 -207 -319 -206q-190 0 -298 151.5 t-108 419.5zM268 551q0 -426 234 -426q121 0 176 104.5t55 319.5q0 424 -231 424q-123 0 -178.5 -105.5t-55.5 -316.5zM905 651h416q0 139 -48.5 232.5t-154.5 93.5q-195 0 -213 -326z" />
<glyph unicode="&#x178;" horiz-adv-x="909" d="M0 1462h186l271 -696l268 696h184l-366 -893v-569h-176v563zM191 1738q0 53 25.5 78t64.5 25q37 0 62.5 -24.5t25.5 -78.5q0 -53 -25.5 -79.5t-62.5 -26.5q-39 0 -64.5 26.5t-25.5 79.5zM539 1738q0 53 26.5 78t63.5 25t63.5 -24.5t26.5 -78.5q0 -53 -26.5 -79.5 t-63.5 -26.5q-39 0 -64.5 26.5t-25.5 79.5z" />
<glyph unicode="&#x2c6;" horiz-adv-x="747" d="M82 1241v21q55 70 114.5 154.5t92.5 152.5h166q33 -70 95 -156t116 -151v-21h-103q-47 37 -94 87t-96 104q-51 -53 -99.5 -104.5t-89.5 -86.5h-102z" />
<glyph unicode="&#x2dc;" horiz-adv-x="813" d="M82 1239q10 104 54 179t132 75q53 0 101.5 -29.5t91.5 -58.5t84 -29q35 0 53 32t31 87h102q-10 -121 -58 -187.5t-126 -66.5q-51 0 -100.5 29.5t-94.5 59.5t-80 30q-66 0 -88 -121h-102z" />
<glyph unicode="&#x2000;" horiz-adv-x="956" />
<glyph unicode="&#x2001;" horiz-adv-x="1913" />
<glyph unicode="&#x2002;" horiz-adv-x="956" />
<glyph unicode="&#x2003;" horiz-adv-x="1913" />
<glyph unicode="&#x2004;" horiz-adv-x="637" />
<glyph unicode="&#x2005;" horiz-adv-x="478" />
<glyph unicode="&#x2006;" horiz-adv-x="318" />
<glyph unicode="&#x2007;" horiz-adv-x="318" />
<glyph unicode="&#x2008;" horiz-adv-x="239" />
<glyph unicode="&#x2009;" horiz-adv-x="382" />
<glyph unicode="&#x200a;" horiz-adv-x="106" />
<glyph unicode="&#x2010;" horiz-adv-x="589" d="M63 469v164h465v-164h-465z" />
<glyph unicode="&#x2011;" horiz-adv-x="589" d="M63 469v164h465v-164h-465z" />
<glyph unicode="&#x2012;" horiz-adv-x="589" d="M63 469v164h465v-164h-465z" />
<glyph unicode="&#x2013;" horiz-adv-x="1024" d="M78 479v146h868v-146h-868z" />
<glyph unicode="&#x2014;" horiz-adv-x="2048" d="M78 479v146h1892v-146h-1892z" />
<glyph unicode="&#x2018;" horiz-adv-x="378" d="M45 981q29 123 72 247t92 234h127q-33 -125 -58.5 -260t-37.5 -244h-183z" />
<glyph unicode="&#x2019;" horiz-adv-x="378" d="M43 958q33 121 58.5 259.5t37.5 244.5h180l15 -22q-29 -121 -71 -244t-91 -238h-129z" />
<glyph unicode="&#x201a;" horiz-adv-x="477" d="M74 -267q33 121 58.5 259.5t37.5 244.5h180l15 -22q-29 -121 -71 -244t-91 -238h-129z" />
<glyph unicode="&#x201c;" horiz-adv-x="729" d="M45 981q29 123 71 247t93 234h125q-33 -125 -57.5 -260t-36.5 -244h-183zM395 981q29 123 72 247t90 234h129q-31 -127 -57.5 -258t-36.5 -246h-184z" />
<glyph unicode="&#x201d;" horiz-adv-x="729" d="M43 958q33 121 58.5 259.5t35.5 244.5h182l15 -22q-29 -121 -71 -244t-91 -238h-129zM393 958q33 129 58.5 259.5t40.5 244.5h178l14 -22q-29 -121 -71 -244t-91 -238h-129z" />
<glyph unicode="&#x201e;" horiz-adv-x="763" d="M47 -269q33 121 58.5 259.5t35.5 244.5h182l15 -22q-29 -121 -71 -244t-91 -238h-129zM397 -269q33 129 58.5 259.5t40.5 244.5h178l14 -22q-29 -121 -71 -244t-91 -238h-129z" />
<glyph unicode="&#x2022;" horiz-adv-x="778" d="M145 748q0 137 64.5 203.5t177.5 66.5t178.5 -66.5t65.5 -203.5q0 -133 -65.5 -202t-178.5 -69q-111 0 -176.5 68t-65.5 203z" />
<glyph unicode="&#x2026;" horiz-adv-x="1460" d="M129 113q0 68 30.5 100.5t84.5 32.5q51 0 83.5 -31t32.5 -102q0 -70 -32.5 -101.5t-83.5 -31.5t-83 32.5t-32 100.5zM614 113q0 68 30.5 100.5t84.5 32.5q51 0 83.5 -31t32.5 -102q0 -70 -32.5 -101.5t-83.5 -31.5t-83 32.5t-32 100.5zM1100 113q0 68 30.5 100.5 t84.5 32.5q51 0 83.5 -31t32.5 -102q0 -70 -32.5 -101.5t-83.5 -31.5t-83 32.5t-32 100.5z" />
<glyph unicode="&#x202f;" horiz-adv-x="382" />
<glyph unicode="&#x2039;" horiz-adv-x="579" d="M74 526v29l311 401l119 -63l-238 -352l238 -348l-119 -68z" />
<glyph unicode="&#x203a;" horiz-adv-x="579" d="M76 193l235 348l-235 352l119 63l311 -401v-29l-311 -401z" />
<glyph unicode="&#x205f;" horiz-adv-x="478" />
<glyph unicode="&#x20ac;" d="M35 512v119h137q0 25 -1 45t-1 43t1 43t1 39h-137v123h147q14 156 68.5 282.5t151 201.5t231.5 75q158 0 293 -84l-70 -148q-49 33 -104.5 53.5t-114.5 20.5q-121 0 -190.5 -103.5t-90.5 -297.5h365v-123h-375q0 -20 -1 -41t-1 -41q0 -23 1 -44.5t1 -43.5h330v-119h-320 q20 -188 94 -280.5t205 -92.5q63 0 122 16.5t120 45.5v-164q-55 -29 -118.5 -43t-137.5 -14q-205 0 -316.5 141t-142.5 391h-147z" />
<glyph unicode="&#x2122;" horiz-adv-x="1370" d="M29 1358v104h483v-104h-188v-617h-109v617h-186zM578 741v721h163l177 -563l180 563h157v-721h-110v416q0 23 2 70t4 76h-8l-189 -562h-90l-180 564h-8q2 -35 4 -78t2 -60v-426h-104z" />
<glyph unicode="&#x25fc;" horiz-adv-x="1095" d="M0 0v1096h1096v-1096h-1096z" />
<glyph unicode="&#xfb01;" horiz-adv-x="1034" d="M23 961v86l149 59v63q0 197 65.5 297.5t217.5 100.5q51 0 94 -9.5t84 -25.5l-43 -135q-31 8 -60.5 16t-60.5 8q-70 0 -97.5 -55t-27.5 -192v-74h205v-139h-205v-961h-172v961h-149zM706 1395q0 59 27.5 87.5t72.5 28.5q96 0 97 -116q0 -57 -25.5 -87t-71.5 -30 q-45 0 -72.5 29.5t-27.5 87.5zM718 0v1100h170v-1100h-170z" />
<glyph unicode="&#xfb02;" horiz-adv-x="1034" d="M23 961v86l149 59v63q0 197 65.5 297.5t217.5 100.5q51 0 94 -9.5t84 -25.5l-43 -135q-31 8 -60.5 16t-60.5 8q-70 0 -97.5 -55t-27.5 -192v-74h205v-139h-205v-961h-172v961h-149zM718 0v1556h170v-1556h-170z" />
<glyph unicode="&#xfb03;" horiz-adv-x="1609" d="M23 961v86l149 59v63q0 197 65.5 297.5t217.5 100.5q51 0 94 -9.5t84 -25.5l-43 -135q-31 8 -60.5 16t-60.5 8q-70 0 -97.5 -55t-27.5 -192v-74h205v-139h-205v-961h-172v961h-149zM596 961v86l149 59v63q0 197 65.5 297.5t217.5 100.5q51 0 94 -9.5t84 -25.5l-43 -135 q-31 8 -60.5 16t-60.5 8q-70 0 -97.5 -55t-27.5 -192v-74h205v-139h-205v-961h-172v961h-149zM1282 1395q0 59 27.5 87.5t72.5 28.5q96 0 97 -116q0 -57 -25.5 -87t-71.5 -30q-45 0 -72.5 29.5t-27.5 87.5zM1294 0v1100h170v-1100h-170z" />
<glyph unicode="&#xfb04;" horiz-adv-x="1607" d="M23 961v86l149 59v63q0 197 65.5 297.5t217.5 100.5q51 0 94 -9.5t84 -25.5l-43 -135q-31 8 -60.5 16t-60.5 8q-70 0 -97.5 -55t-27.5 -192v-74h205v-139h-205v-961h-172v961h-149zM596 961v86l149 59v63q0 197 65.5 297.5t217.5 100.5q51 0 94 -9.5t84 -25.5l-43 -135 q-31 8 -60.5 16t-60.5 8q-70 0 -97.5 -55t-27.5 -192v-74h205v-139h-205v-961h-172v961h-149zM1294 0v1556h170v-1556h-170z" />
</font>
</defs>
</svg>
